The Heat 2013 TS x264-*THC*

The Heat 2013 TS x264-*THC*

Código:

Source: A Very Good Friend…Thanks
Audio: A friend…THANKS

http://www.imdb.com/title/tt2404463/

Format : MPEG-4
Format profile : Base Media
Codec ID : isom
File size : 1.24 GiB
Duration : 1h 49mn
Overall bit rate : 1 615 Kbps
Encoded date : UTC 2013-07-07 10:39:11
Tagged date : UTC 2013-07-07 10:39:11
Video
ID : 1
Format : AVC
Format/Info : Advanced Video Codec
Format profile : High@L3.0
Format settings, CABAC : Yes
Format settings, ReFrames : 5 frames
Format settings, GOP : M=1, N=32
Codec ID : avc1
Codec ID/Info : Advanced Video Coding
Duration : 1h 49mn
Bit rate mode : Variable
Bit rate : 1 421 Kbps
Maximum bit rate : 4 669 Kbps
Width : 720 pixels
Height : 304 pixels
Display aspect ratio : 2.35:1
Frame rate mode : Constant
Frame rate : 23.976 fps
Color space : YUV
Chroma subsampling : 4:2:0
Bit depth : 8 bits
Scan type : Progressive
Bits/(Pixel*Frame) : 0.271
Stream size : 1.09 GiB (88%)
Title : 264#trackID=1:fps=23.976@GPAC0.5.1-DEV-rev4283
Writing library : x264 core 133 r2334 a3ac64b
Encoding settings : cabac=1 / ref=5 / deblock=1:-1:-1 / analyse=0×3:0×133 / me=umh / subme=7 / psy=1 / psy_rd=1.10:0.15 / mixed_ref=1 / me_range=16 / chroma_me=1 / trellis=1 / 8x8dct=1 / cqm=0 / deadzone=21,11 / fast_pskip=1 / chroma_qp_offset=-5 / threads=6 / lookahead_threads=1 / sliced_threads=0 / nr=0 / decimate=1 / interlaced=0 / bluray_compat=0 / constrained_intra=0 / bframes=3 / b_pyramid=2 / b_adapt=1 / b_bias=0 / direct=1 / weightb=1 / open_gop=0 / weightp=2 / keyint=240 / keyint_min=23 / scenecut=40 / intra_refresh=0 / rc_lookahead=80 / rc=crf / mbtree=1 / crf=17.0 / qcomp=0.60 / qpmin=0 / qpmax=69 / qpstep=4 / ip_ratio=1.40 / aq=1:1.00
Encoded date : UTC 2013-07-07 10:39:11
Tagged date : UTC 2013-07-07 10:40:21
Audio
ID : 2
Format : AC-3
Format/Info : Audio Coding 3
Mode extension : CM (complete main)
Codec ID : ac-3
Duration : 1h 49mn
Bit rate mode : Constant
Bit rate : 192 Kbps
Channel(s) : 2 channels
Channel positions : Front: L R
Sampling rate : 48.0 KHz
Bit depth : 16 bits
Stream size : 151 MiB (12%)
Title : ac3#trackID=1@GPAC0.5.1-DEV-rev4283
Encoded date : UTC 2013-07-07 10:39:55
Tagged date : UTC 2013-07-07 10:40:21
Workdone:
We got theses files from a friend…So thank them, as well as us for this release. Source was very nice… Had some movements in 2 place that we saw. The very beginning which we fix by rotating and cutting and the other was a very very small movement which you will probably wont even notice. Did the usual TLC and sync a friend’s line to our release



Sample:

Código:

http://uploaded.net/file/qoi5t0v5/The%20Heat%202013%20TS%20×264-THC_SAMPLE.avi

Download:

Código:

http://uploaded.net/file/xwou2hf1/The%20Heat%202013%20TS%20×264-THC.mp4

or

http://uploaded.net/file/i9gtwwy4/The%20Heat%202013%20TS%20×264-THC.part1.rar

http://uploaded.net/file/pajrwewy/The%20Heat%202013%20TS%20×264-THC.part2.rar

Etiquetas: , ,

Sobre admin