Descargar Peliculas Hd 1080p Latino 2013 Putlocker - Taringa Peliculas
Inicio > Posts > Descargar Peliculas Hd 1080p Latino 2013 Putlocker

Descargar Peliculas Hd 1080p Latino 2013 Putlocker


Peliculas 1080p Latino Torrent - YouTube

2 Nov 2013 ... Peliculas 1080p Latino Torrent suscribte LINK DE MI BLOG PARA DESCARGARMAS PELICULAS EN ... Published on Nov 2, 2013 ... PARA DESCARGAR VEREL VIDEO DRAGON BALL TEMPORADA FULL HD LATINO

Peliculas 2013 HD MKV por MEGA y varios servidores ...

24 Oct 2013 ... Descargar Peliculas mkv 1080p, 720p, 3D SBS, DVDRip y mas, gratis por MEGA,... Peliculas 2013 HD MKV por MEGA y varios servidores mas .... Descargarpeliculas Blu-Ray 1080p español latino, Juegos PC, software full ...

Descargar Turbo,la pelicula, ESPAÑOL LATINO, 1080p HD - YouTube

25 Nov 2013 ... Descargar Turbo,la pelicula, 1080p HD, UN LINK, Mega en formato mp4.Suscribete ... Published on Nov 25, 2013 ... En español Latino ? .

CinemaniaHD - No somos únicos, ¡somos diferentes!

Descarga Peliculas & Series en Full HD 1080p/720p en Español Latino e Ingles.Peliculas en 3D, Accion, Crimen ... Solo las mejores! y en los mejores servidores,Mega, Firedrive, Sockshare... ... Carrie (2013) EXTENDED 1080p Latino-Ingles.

Download The Impossible (2012) 1080p Dual Español ...

Added on Apr 28, 2013 by mncr1096 in Movies > Dubbed Movies ... TheImpossible (2012) 1080p Español Latino-Ingles PeliculasbyMNCR.mkv, 1.75 GB ...

(2013) 1080p BlurayRip, Dual Audio - KickassTorrents

Mar 21, 2014 ... The Hobbit The Desolation of Smaug (2013) 1080p BlurayRip, Dual Audio: ... (2013) 1080p BlurayRip, Dual Audio: (Español Latino + Ingles +. ... Stream size :3.27 GiB (75%) ... Codec ID/Info : The same subtitle format used on BDs/HD-DVDs .... Muy buena película :) Compartido según la foto que adjunto.

Battle of the Year 2013 1080p Dual Audio Español Latino, ...

Nov 29, 2013 ... Battle of the Year (2013) 1080p Dual Audio Español Latino, Ingles + Subs.seeders: 99. leechers: ... Stream size : 2.16 GiB (72%) Writing library ...

Descargar o ver online peliculas dvdrip, brrip, hd audio ...

Sin escalas HD 1080p Latino 2014. Sin escalas. Año: 2014. Género: AcciónCalidad: HD 1080p. Audio: Latino. Philomena HD 1080p Latino 2013. Philomena.

Kick Ass 2 (2013) 1080p dual audio latino (download torrent) ...

Dec 7, 2013 ... Download Kick Ass 2 (2013) 1080p dual audio latino torrent or any other torrentfrom the Video HD - Movies. Direct download ... Secuela de la aclamada películaKick-Ass (2010), basada en el cómic de Mark Millar. DATOS ...

Descargar Peliculas MKV | Peliculas Gratis, Descarga por Mega ...

La mujer Invisible (The Invisible Woman) 1080p Español Latino · Peliculas MKV6 abril, 2014 Drama, Latino, Mega, Peliculas del 2013, Peliculas en formato ...

Peliculas 1080p Latino Torrent - YouTube

2 Nov 2013 ... Peliculas 1080p Latino Torrent suscribte LINK DE MI BLOG PARA DESCARGARMAS PELICULAS EN 1080P LATINO ... Phata Poster Nikla Hero (2013) | HD FullHindi Movies | by JaiHo 904,153 views; 5:41. Watch Later

Descargar peliculas gratis full Hd 3D, 1080p,720p ...

14 Nov 2013 ... Descargar peliculas gratis full Hd 3D, 1080p,720p audiolatino .... A prueva deHombres Pelicula Completa en Español Latino HD 2013 by ...

Masteriplatino Películas DVDRip, HD Dual, Anime HD, Series HD ...

Peliculas HD Dual, Anime HD, Manga, Musica Descarga Directa Gratis. ...Últimas Películas DVDRip/BrRip , HD 720p/1080p Latino - Ingles - CastellanoPosteadas. El Hobbit: La Desolación de Smaug BRRip HD 720p (2013)... ElHobbit: La ...

Kick Ass 2 (2013) 1080p dual audio latino (download torrent) - ...

7 Dec 2013 ... Kick Ass 2 (2013) 1080p dual audio latino. Type: Video > HD - Movies; Files: 3;Size: 2.6 GiB (2795855600 Bytes); Tag(s): Kick ... Secuela de la aclamadapelícula Kick-Ass (2010), basada en el cómic de Mark Millar. DATOS ...

Last Vegas (2013) Full HD 1080p Brrip (Esp Latino, ...

4 Feb 2014 ... Last Vegas (2013) Full HD 1080p Brrip (Esp Latino, Ingles + Subs ... Títulooriginal: Last Vegas (Plan Las vegas) Año: 2013 Duración: 105 min. País: USA ...No amigo, de que kickass me hablas? esa película aún no la subo.

Pacific Rim (2013) [1080p] Dual Audio Español Latino, Ing ...

7 Oct 2013 ... Pacific Rim (2013) [1080p] Dual Audio Español Latino, Ing. Type: Video > HD -Movies; Files: 3; Size: 2.54 GiB (2722321793 Bytes); Spoken ... gracias por todaslas peliculas que subes muy buena calidad muchas gracias.

HD Movies & Torrents | Torrent Butler

Drop us a line! The Wolf of Wall Street poster. The Wolf of Wall Street 2013 HD.Frozen poster. Frozen 2013 HD.

YIFY Torrents - Browse Movie - YTS

... Previous12345678Next »Last » · The Best Offer (2013) Cover.

12 Años de Esclavitud 1080p Latino Dual Full HD 2013 (Mega ...

19 Feb 2014 ... 12 Años de Esclavitud 1080p Pelicula Disponible en Calidad FULL HD conAudio en Español Latino tambien titulado ... 12 Años de Esclavitud 1080p LatinoDual Full HD 2013 (Mega)(Putlocker) ... DESCARGA UPLOADED

Zonadictoz » Descargar Peliculas, Juegos, Programas, Discos y ...

Hamatora Capitulo 11 Español [MP4 Ligero][Mega Putlocker & Mediafire] ·Tarzan (2013) audio Latino Pelicula Completa [Firedrive] · Ver Premios Oscar2014 en ... Fin 2012 BRRip 1080p Audio Castellano AAC 5.1. 0. 6. Harry Potter 2(2002) ...


Posts Relacionados